Loading...

Ikinomo-gakari - Yell + lyric 「いきものがかり 合唱付」 Live

1,272,704 views

Loading...

Loading...

Rating is available when the video has been rented.
This feature is not available right now. Please try again later.
Published on Dec 7, 2015

Playlist : https://youtube.com/playlist?list=PLs...

Ikimonogakari - Ikimonogakari no Mina-san, Konnitsuaa!! 2010 ~Nandemo Arena!!!~ [BD 1280x720 H264 DTS]

================
General
Unique ID : 254015304966180716513212086575131374900 (0xBF199176A6597F74BFB449958739B534)
Complete name : [2011.04.27] Ikimonogakari - Ikimonogakari no Mina-san, Konnitsuaa!! 2010 ~Nandemo Arena!!!~ [BD 1280x720 H264 DTS] .mkv
Format : Matroska
Format version : Version 2
File size : 3.42 GiB
Original Duration : 2h 38mn
Overall bit rate : 3 093 Kbps
Encoded date : UTC 2012-09-13 07:28:20
Writing application : mkvmerge v5.6.0 ('Kenya Kane') built on May 27 2012 16:44:04
Writing library : libebml v1.2.3 + libmatroska v1.3.0

Video
ID : 1
Format : AVC
Format/Info : Advanced Video Codec
Format profile : High@L4.1
Format settings, CABAC : Yes
Format settings, ReFrames : 4 frames
Muxing mode : Header stripping
Codec ID : V_MPEG4/ISO/AVC
Duration : 2h 38mn
Bit rate : 1 582 Kbps
Width : 1 280 pixels
Height : 722 pixels
Display aspect ratio : 16:9
Frame rate mode : Constant
Frame rate : 29.970 fps
Color space : YUV
Chroma subsampling : 4:2:0
Bit depth : 8 bits
Scan type : Progressive
Bits/(Pixel*Frame) : 0.057
Stream size : 1.68 GiB (49%)
Writing library : x264 core 125 r2200 999b753
Encoding settings : cabac=1 / ref=3 / deblock=1:0:0 / analyse=0x3:0x133 / me=umh / subme=7 / psy=1 / psy_rd=1.00:0.00 / mixed_ref=1 / me_range=16 / chroma_me=1 / trellis=1 / 8x8dct=1 / cqm=0 / deadzone=21,11 / fast_pskip=1 / chroma_qp_offset=-2 / threads=6 / lookahead_threads=1 / sliced_threads=0 / nr=0 / decimate=1 / interlaced=0 / bluray_compat=0 / constrained_intra=0 / bframes=3 / b_pyramid=2 / b_adapt=1 / b_bias=0 / direct=1 / weightb=1 / open_gop=0 / weightp=2 / keyint=300 / keyint_min=29 / scenecut=40 / intra_refresh=0 / rc_lookahead=40 / rc=2pass / mbtree=1 / bitrate=1582 / ratetol=1.0 / qcomp=0.60 / qpmin=0 / qpmax=69 / qpstep=4 / cplxblur=20.0 / qblur=0.5 / ip_ratio=1.40 / aq=1:1.00
Default : Yes
Forced : No

Audio
ID : 2
Format : DTS
Format/Info : Digital Theater Systems
Mode : 16
Format settings, Endianness : Big
Codec ID : A_DTS
Duration : 2h 38mn
Bit rate mode : Constant
Bit rate : 1 510 Kbps
Channel(s) : 5 channels
Channel positions : Front: L C R, Side: L R
Sampling rate : 48.0 KHz
Bit depth : 24 bits
Compression mode : Lossy
Stream size : 1.67 GiB (49%)
Language : Japanese
Default : Yes
Forced : No

=================

  • Category

  • Song

  • Artist

    • いきものがかり
  • Album

    • 超いきものばかり~てんねん記念メンバーズBESTセレクション~
  • Licensed to YouTube by

    • Sony Music Entertainment (Japan) Inc. (on behalf of (P)2009 Epic Records Japan); LatinAutor - SonyATV, LatinAutor, UNIAO BRASILEIRA DE EDITORAS DE MUSICA - UBEM, SOLAR Music Rights Management, Sony ATV Publishing, and 4 Music Rights Societies

Loading...

When autoplay is enabled, a suggested video will automatically play next.

Up next


to add this to Watch Later

Add to

Loading playlists...