Loading...

Daniela Romo - De mi enamorate [480x270 Audio Rebuilded]

56,975 views

Loading...

Loading...

Loading...

Rating is available when the video has been rented.
This feature is not available right now. Please try again later.
Published on Apr 21, 2012

General
Complete name : C:\Documents and Settings\Administrador\Escritorio\Daniela Romo - De mi enamorate 2.avi
Format : AVI
Format/Info : Audio Video Interleave
File size : 31.8 MiB
Duration : 3mn 37s
Overall bit rate : 1 225 Kbps
Writing application : Lavf52.46.0
Writing library : VirtualDub build 33848/release

Video
ID : 0
Format : MPEG-4 Visual
Format settings, BVOP : 1
Format settings, QPel : No
Format settings, GMC : No warppoints
Format settings, Matrix : Default (H.263)
Muxing mode : Packed bitstream
Codec ID : DX50
Codec ID/Hint : DivX 5
Duration : 3mn 37s
Bit rate : 1 022 Kbps
Width : 480 pixels
Height : 270 pixels
Display aspect ratio : 16:9
Frame rate : 29.560 fps
Color space : YUV
Chroma subsampling : 4:2:0
Bit depth : 8 bits
Scan type : Progressive
Compression mode : Lossy
Bits/(Pixel*Frame) : 0.267
Stream size : 26.5 MiB (83%)
Writing library : DivX 6.8.5 (UTC 2009-08-20)

Audio
ID : 1
Format : MPEG Audio
Format version : Version 1
Format profile : Layer 3
Mode : Dual mono
Codec ID : 55
Codec ID/Hint : MP3
Duration : 3mn 36s
Bit rate mode : Constant
Bit rate : 192 Kbps
Channel(s) : 2 channels
Sampling rate : 44.1 KHz
Compression mode : Lossy
Delay relative to video : 5ms
Stream size : 4.96 MiB (16%)
Alignment : Split accross interleaves
Interleave, duration : 34 ms (1.01 video frame)
Interleave, preload duration : 500 ms

Loading...

Advertisement
When autoplay is enabled, a suggested video will automatically play next.

Up next


to add this to Watch Later

Add to

Loading playlists...