Loading...

Nokia Lumia 920 WP8 - Chairlift 1080p

286 views

Loading...

Loading...

Loading...

Rating is available when the video has been rented.
This feature is not available right now. Please try again later.
Published on Dec 25, 2012

Media Info:

General
Complete name : /Users/brianklug/Desktop/Lumia 920/WP_20121225_029.mp4
Format : MPEG-4
Format profile : Base Media / Version 2
Codec ID : mp42
File size : 126 MiB
Duration : 52s 636ms
Overall bit rate : 20.0 Mbps

Video
ID : 1
Format : AVC
Format/Info : Advanced Video Codec
Format profile : Main@L4.0
Format settings, CABAC : Yes
Format settings, ReFrames : 1 frame
Format settings, GOP : M=1, N=30
Codec ID : avc1
Codec ID/Info : Advanced Video Coding
Duration : 52s 636ms
Source duration : 52s 636ms
Bit rate mode : Variable
Bit rate : 19.9 Mbps
Width : 1 920 pixels
Height : 1 080 pixels
Display aspect ratio : 16:9
Frame rate mode : Variable
Frame rate : 29.923 fps
Minimum frame rate : 5.363 fps
Maximum frame rate : 30.090 fps
Color space : YUV
Chroma subsampling : 4:2:0
Bit depth : 8 bits
Scan type : Progressive
Bits/(Pixel*Frame) : 0.321
Stream size : 125 MiB (99%)
Source stream size : 125 MiB (99%)
mdhd_Duration : 52632

Audio
ID : 2
Format : AAC
Format/Info : Advanced Audio Codec
Format profile : LC
Codec ID : 40
Duration : 52s 636ms
Source duration : 52s 637ms
Bit rate mode : Constant
Bit rate : 96.0 Kbps
Channel(s) : 1 channel
Channel positions : Front: C
Sampling rate : 44.1 KHz
Compression mode : Lossy
Stream size : 633 KiB (0%)
Source stream size : 633 KiB (0%)
mdhd_Duration : 52636

Loading...

When autoplay is enabled, a suggested video will automatically play next.

Up next


to add this to Watch Later

Add to

Loading playlists...