Loading...

Ciccada - A Garden Of Delights (Dynamic Range 10)

24,486 views

Loading...

Loading...

Loading...

Rating is available when the video has been rented.
This feature is not available right now. Please try again later.
Published on Jul 27, 2010

From Album "A child in the mirror" 2010

Buy this album on http://production.altrock.it/

Line-up / Musicians:
- Evangelia Kozoni (Vocals, Accordion, Percussion) - 2-7,9,10
- Nicolas Nikolopoulos (Flute, Recorders, Organ, Mellotron, Piano, Percussion, Vocals)
- Yorgos Mouchos (Acoustic & Electric Guitars, Vocals)
- Omiros Komninos (Bass)
- Alberto De Grandis (Drums)
- Panayotis Yannakakis (Piano)
- Hryssoula Georgaki (Clarinet)
- Spyros Laskarides (Trumpet)
- Vassilis Lykos (Violoncello)
- Anna Bohmig (French Horn)

http://www.myspace.com/ciccada

--------------------------------------------------------------------------------
Analyzed: Ciccada / A Child In The Mirror
--------------------------------------------------------------------------------

DR Peak RMS Duration Track
--------------------------------------------------------------------------------
DR9 -0.30 dB -12.29 dB 4:38 01-Ciccada
DR9 -0.30 dB -12.54 dB 6:09 02-Isabella Sunset
DR11 -0.30 dB -15.47 dB 6:01 03-A Child In The Mirror
DR10 -0.30 dB -13.99 dB 7:09 04-A Storyteller's Dream
DR11 -1.79 dB -15.83 dB 4:16 05-Raindrops
DR10 -0.30 dB -12.51 dB 5:28 06-An Endless Sea
DR9 -0.30 dB -12.99 dB 4:58 07-Epirus - A Mountain Song
DR10 -0.30 dB -13.08 dB 7:09 08-Elisabeth
DR11 -0.30 dB -13.56 dB 3:14 09-The Moment
DR9 -0.30 dB -12.36 dB 8:24 10-A Garden Of Delights
--------------------------------------------------------------------------------

Number of tracks: 10
Official DR value: DR10

  • Category

  • License

    • Standard YouTube License
  • Music

  • Song

    • A Garden of Delights
  • Artist

    • Ciccada
  • Album

    • A Child in the Mirror
  • Licensed by

    • CD Baby

Loading...

When autoplay is enabled, a suggested video will automatically play next.

Up next


to add this to Watch Later

Add to

Loading playlists...