Upload

Loading icon Loading...

This video is unavailable.

Faith No More - SWU 2011 [Full Concert]

Sign in to YouTube

Sign in with your Google Account (YouTube, Google+, Gmail, Orkut, Picasa, or Chrome) to like BornAgain1970's video.

Sign in to YouTube

Sign in with your Google Account (YouTube, Google+, Gmail, Orkut, Picasa, or Chrome) to dislike BornAgain1970's video.

Sign in to YouTube

Sign in with your Google Account (YouTube, Google+, Gmail, Orkut, Picasa, or Chrome) to add BornAgain1970's video to your playlist.

Uploaded on Nov 14, 2011

Um dos melhores shows que já passaram por terras tupiniquins!

Detalhes do Rip:

General
Complete name : /media/Novo volume/Faith.No.More.SWU.2011.by.SNV.avi
Format : AVI
Format/Info : Audio Video Interleave
File size : 1.03 GiB
Duration : 1h 23mn
Overall bit rate : 1 772 Kbps

Video
ID : 0
Format : MPEG-4 Visual
Format profile : Advanced Simple@L5
Format settings, BVOP : 2
Format settings, QPel : No
Format settings, GMC : No warppoints
Format settings, Matrix : Default (H.263)
Muxing mode : Packed bitstream
Codec ID : DX50
Codec ID/Hint : DivX 5
Duration : 1h 23mn
Bit rate : 1 606 Kbps
Width : 320 pixels
Height : 240 pixels
Display aspect ratio : 4:3
Frame rate : 15.000 fps
Color space : YUV
Chroma subsampling : 4:2:0
Bit depth : 8 bits
Scan type : Progressive
Compression mode : Lossy
Bits/(Pixel*Frame) : 1.394
Stream size : 955 MiB (91%)
Writing library : XviD 58

Audio
ID : 1
Format : AC-3
Format/Info : Audio Coding 3
Mode extension : CM (complete main)
Codec ID : 2000
Duration : 1h 23mn
Bit rate mode : Constant
Bit rate : 160 Kbps
Channel(s) : 2 channels
Channel positions : Front: L R
Sampling rate : 48.0 KHz
Bit depth : 16 bits
Compression mode : Lossy
Stream size : 95.1 MiB (9%)
Alignment : Aligned on interleaves
Interleave, duration : 68 ms (1.02 video frame)
Interleave, preload duration : 96 ms

  • Category

  • License

    Standard YouTube License

Loading icon Loading...

Loading icon Loading...

Loading icon Loading...

Loading icon Loading...

Ratings have been disabled for this video.
Rating is available when the video has been rented.
This feature is not available right now. Please try again later.

Loading icon Loading...

Advertisement
Loading...
Working...
Sign in to add this to Watch Later

Add to