Upload

Loading icon Loading...

This video is unavailable.

Black Sabbath - Live in Moscow - 1989 [Full Concert - High Quality]

Sign in to YouTube

Sign in with your Google Account (YouTube, Google+, Gmail, Orkut, Picasa, or Chrome) to like BornAgain1970's video.

Sign in to YouTube

Sign in with your Google Account (YouTube, Google+, Gmail, Orkut, Picasa, or Chrome) to dislike BornAgain1970's video.

Sign in to YouTube

Sign in with your Google Account (YouTube, Google+, Gmail, Orkut, Picasa, or Chrome) to add BornAgain1970's video to your playlist.

Published on Mar 5, 2012

http://www.cozypowell4ever.blogspot.com

00:00 Headless Cross
06:23 Neon Knights
11:37 Children of the Sea
17:45 Iron Man
22:43 Children of the Grave
29:23 When Death Calls
36:10 War Pigs
43:18 Tony Iommi Guitar Solo
46:13 Die Young
50:33 Black Sabbath
1:03:30 Heaven and Hell
1:17:53 Paranoid 
1:22:39 Apache
1:26:07 Paranoid (Reprise)


Cozy Powell 4ever!


Vocals: Tony Martin
Guitar: Tony Iommi
Bass: Neil Murray
Drums: Cozy Powell
Keyboards: Geoff Nicholls


General
Unique ID : 4463919042627023381480443776193845237 (0x35BB8337803589737929279E9C8D7F5)
Complete name : /media/SLAVE/Black Sabbath Live in Moscow/Black.Sabbath.Live.Moscow.1989.SN­V.mkv
Format : Matroska
Format version : Version 2
File size : 4.05 GiB
Duration : 1h 30mn
Overall bit rate : 6 395 Kbps
Movie name : Avidemux
Writing application : Lavf52.108.0
Writing library : Lavf52.108.0
AUTHOR : Avidemux


Video
ID : 1
Format : MPEG Video
Format version : Version 2
Format profile : Main@Main
Format settings, BVOP : No
Format settings, Matrix : Custom
Codec ID : V_MPEG2
Codec ID/Info : MPEG 1 or 2 Video
Duration : 1h 30mn
Bit rate : 6 076 Kbps
Maximum bit rate : 6 200 Kbps
Width : 720 pixels
Height : 480 pixels
Display aspect ratio : 4:3
Frame rate : 29.970 fps
Standard : NTSC
Color space : YUV
Chroma subsampling : 4:2:0
Bit depth : 8 bits
Scan type : Interlaced
Scan order : Bottom Field First
Compression mode : Lossy
Bits/(Pixel*Frame) : 0.587
Stream size : 3.84 GiB (95%)
Default : Yes
Forced : No

Audio
ID : 2
Format : AC-3
Format/Info : Audio Coding 3
Mode extension : CM (complete main)
Codec ID : A_AC3
Duration : 1h 30mn
Bit rate mode : Constant
Bit rate : 192 Kbps
Channel(s) : 2 channels
Channel positions : Front: L R
Sampling rate : 48.0 KHz
Bit depth : 16 bits
Compression mode : Lossy
Delay relative to video : -33ms
Stream size : 124 MiB (3%)
Default : Yes
Forced : No

  • Category

  • License

    Standard YouTube License

Loading icon Loading...

Loading icon Loading...

Loading icon Loading...

Loading icon Loading...

Ratings have been disabled for this video.
Rating is available when the video has been rented.
This feature is not available right now. Please try again later.

Loading icon Loading...

Loading...
Working...
to add this to Watch Later

Add to