Upload

Loading icon Loading...

This video is unavailable.

Karting (#2) On-board Helmet Cam, in Varna - Bulgaria

Sign in to YouTube

Sign in with your Google Account (YouTube, Google+, Gmail, Orkut, Picasa, or Chrome) to like BilBg's video.

Sign in to YouTube

Sign in with your Google Account (YouTube, Google+, Gmail, Orkut, Picasa, or Chrome) to dislike BilBg's video.

Sign in to YouTube

Sign in with your Google Account (YouTube, Google+, Gmail, Orkut, Picasa, or Chrome) to add BilBg's video to your playlist.

Uploaded on Nov 18, 2011

Used Software: Avidemux 2.5 (32-bit) (to cut, re-size and re-encode the video)
http://avidemux.sourceforge.net/


ORIGINAL FILE:

General
Complete name : E:\Users\A n L\Desktop\-- Bil --\_ Karting _\SUNP0003.AVI
Format : AVI
Format/Info : Audio Video Interleave
File size : 1.53 GiB
Duration : 27mn 53s
Overall bit rate : 7 871 Kbps

Video
ID : 0
Format : JPEG
Codec ID : MJPG
Duration : 27mn 53s
Bit rate : 7 501 Kbps
Width : 720 pixels
Height : 480 pixels
Display aspect ratio : 3:2
Frame rate : 31.000 fps
Standard : NTSC
Color space : YUV
Chroma subsampling : 4:2:2
Bit depth : 8 bits
Scan type : Progressive
Compression mode : Lossy
Bits/(Pixel*Frame) : 0.700
Stream size : 1.46 GiB (95%)

Audio
ID : 1
Format : PCM
Format settings, Endianness : Little
Format settings, Sign : Signed
Codec ID : 1
Codec ID/Hint : Microsoft
Duration : 27mn 53s
Bit rate mode : Constant
Bit rate : 352.8 Kbps
Channel(s) : 1 channel
Sampling rate : 22.05 KHz
Bit depth : 16 bits
Stream size : 70.4 MiB (4%)
Interleave, duration : 46 ms (1.44 video frame)


RE-ENCODED FILE:

General
Complete name : E:\Users\A n L\Desktop\-- Bil --\_ Karting _\Karting_BilBg_2010-11-07_AVC.MP4
Format : MPEG-4
Format profile : Base Media
Codec ID : isom
File size : 116 MiB
Duration : 12mn 0s
Overall bit rate : 1 355 Kbps
Movie name : Karting_BilBg_2010-11-07_AVC.MP4
Writing application : Lavf52.108.0

Video
ID : 1
Format : AVC
Format/Info : Advanced Video Codec
Format profile : High@L3.0
Format settings, CABAC : Yes
Format settings, ReFrames : 4 frames
Codec ID : avc1
Codec ID/Info : Advanced Video Coding
Duration : 12mn 0s
Bit rate mode : Variable
Bit rate : 1 314 Kbps
Width : 640 pixels
Height : 480 pixels
Display aspect ratio : 4:3
Frame rate mode : Constant
Frame rate : 30.999 fps
Color space : YUV
Chroma subsampling : 4:2:0
Bit depth : 8 bits
Scan type : Progressive
Bits/(Pixel*Frame) : 0.138
Stream size : 113 MiB (97%)
Writing library : x264 core 115 r1947 b5a8ad7
Encoding settings : cabac=1 / ref=3 / deblock=1:0:0 / analyse=0x3:0x113 / me=hex / subme=7 / psy=1 / psy_rd=1.00:0.00 / mixed_ref=1 / me_range=16 / chroma_me=1 / trellis=1 / 8x8dct=1 / cqm=0 / deadzone=21,11 / fast_pskip=1 / chroma_qp_offset=-2 / threads=1 / sliced_threads=0 / nr=0 / decimate=1 / interlaced=0 / bluray_compat=0 / constrained_intra=0 / bframes=3 / b_pyramid=2 / b_adapt=1 / b_bias=0 / direct=1 / weightb=1 / open_gop=0 / weightp=2 / keyint=250 / keyint_min=25 / scenecut=40 / intra_refresh=0 / rc_lookahead=40 / rc=crf / mbtree=1 / crf=26.0 / qcomp=0.60 / qpmin=0 / qpmax=69 / qpstep=4 / ip_ratio=1.40 / aq=1:1.00

Audio
ID : 2
Format : AAC
Format/Info : Advanced Audio Codec
Format profile : LC
Codec ID : 40
Duration : 12mn 0s
Bit rate mode : Variable
Bit rate : 38.0 Kbps
Maximum bit rate : 96.0 Kbps
Channel(s) : 1 channel
Channel positions : Front: C
Sampling rate : 22.05 KHz
Compression mode : Lossy
Stream size : 3.26 MiB (3%)

Loading icon Loading...

Loading icon Loading...

Loading icon Loading...

Loading icon Loading...

Ratings have been disabled for this video.
Rating is available when the video has been rented.
This feature is not available right now. Please try again later.

Loading icon Loading...

Loading...
Working...
to add this to Watch Later

Add to