Upload

Loading icon Loading...

This video is unavailable.

Dial Up Sound (HD)

Sign in to YouTube

Sign in with your Google Account (YouTube, Google+, Gmail, Orkut, Picasa, or Chrome) to like cdoamh's video.

Sign in to YouTube

Sign in with your Google Account (YouTube, Google+, Gmail, Orkut, Picasa, or Chrome) to dislike cdoamh's video.

Sign in to YouTube

Sign in with your Google Account (YouTube, Google+, Gmail, Orkut, Picasa, or Chrome) to add cdoamh's video to your playlist.

Uploaded on Jan 31, 2011

The old Dial up sound IN HD!!

Info:
Format : AVI
Format/Info : Audio Video Interleave
File size : 11.9 MiB
Duration : 26s 993ms
Overall bit rate : 3 702 Kbps

Video
ID : 0
Format : MPEG-4 Visual
Format profile : Simple@L1
Format settings, BVOP : No
Format settings, QPel : No
Format settings, GMC : No warppoints
Format settings, Matrix : Default (H.263)
Codec ID : XVID
Codec ID/Hint : XviD
Duration : 26s 933ms
Bit rate : 3 504 Kbps
Width : 1 280 pixels
Height : 720 pixels
Display aspect ratio : 16:9
Frame rate : 30.000 fps
Resolution : 8 bits
Colorimetry : 4:2:0
Scan type : Progressive
Bits/(Pixel*Frame) : 0.127
Stream size : 11.2 MiB (94%)
Writing library : Lavc52.41.0

Audio
ID : 1
Format : AC-3
Format/Info : Audio Coding 3
Codec ID : 2000
Duration : 26s 993ms
Bit rate mode : Constant
Bit rate : 320 Kbps
Channel(s) : 2 channels
Channel positions : Front: L R
Sampling rate : 48.0 KHz
Stream size : 631 KiB (5%)
Alignment : Aligned on interleaves
Interleave, duration : 35 ms (1.04 video frame)

Loading icon Loading...

Loading icon Loading...

Loading icon Loading...

The interactive transcript could not be loaded.

Loading icon Loading...

Loading icon Loading...

Ratings have been disabled for this video.
Rating is available when the video has been rented.
This feature is not available right now. Please try again later.

Loading icon Loading...

Loading...
Working...
Sign in to add this to Watch Later

Add to