Upload

Loading icon Loading...

This video is unavailable.

Magic Pie - Slightly Mad (Dynamic Range 9)

Sign in to YouTube

Sign in with your Google Account (YouTube, Google+, Gmail, Orkut, Picasa, or Chrome) to like TheProgforever79's video.

Sign in to YouTube

Sign in with your Google Account (YouTube, Google+, Gmail, Orkut, Picasa, or Chrome) to dislike TheProgforever79's video.

Sign in to YouTube

Sign in with your Google Account (YouTube, Google+, Gmail, Orkut, Picasa, or Chrome) to add TheProgforever79's video to your playlist.

Uploaded on Jan 29, 2011

From Album "THE SUFFERING JOY" 2011

***Buy This Album If You Like***

Distribuited by http://www.progressrec.com

Line-up

Eriikur Hauksson: vocals and guitars
Eirik Hanssen: vocals and guitars
Kim Stenberg: guitars
Lars Petter Holstad: bass
Gilbert Marshall: vocals and keyboards
Jan T. Johannessen: drums

Guest musician:
Maria Bentsen: backing vocals

http://www.magicpie.net

----------------------------------------­----------------------------------------
Analyzed: Magic Pie / The suffering joy
----------------------------------------­----------------------------------------

DR Peak RMS Duration Track
----------------------------------------­----------------------------------------
DR10 -2.07 dB -15.50 dB 1:17 01-Track 1
DR7 -0.10 dB -8.51 dB 3:24 02-Track 2
DR10 -0.10 dB -12.58 dB 2:28 03-Track 3
DR8 -0.10 dB -9.57 dB 17:09 04-Track 4
DR9 -0.10 dB -11.22 dB 9:30 05-Track 5
DR11 -0.10 dB -12.52 dB 3:12 06-Track 6
DR9 -0.10 dB -10.41 dB 9:48 07-Track 7
DR9 -0.10 dB -11.67 dB 15:22 08-Track 8
DR8 -0.10 dB -10.32 dB 8:39 09-Track 9
----------------------------------------­----------------------------------------

Number of tracks: 9
Official DR value: DR9

  • Category

  • License

    Standard YouTube License

Loading icon Loading...

Loading icon Loading...

Loading icon Loading...

Loading icon Loading...

Ratings have been disabled for this video.
Rating is available when the video has been rented.
This feature is not available right now. Please try again later.

Loading icon Loading...

Loading...
Working...
to add this to Watch Later

Add to